Yahoo Search Búsqueda en la Web

Resultado de búsqueda

  1. 4 de feb. de 2022 · Provided to YouTube by IIP-DDSPrisoner Of A Dream (Live) · Walter TroutNo More Fish Jokes℗ Mascot Label Group/ProvogueReleased on: 1993-07-01Producer: Walter...

  2. 31 de ene. de 2024 · Als liefhebber van de blues uit m.n. de periode 1920-1960 heb ik wat minder met artiesten als Walter Trout. Het staat buiten discussie dat Walter Trout een geweldige gitarist is, maar het is toch allemaal een beetje gelikt.

  3. Features Song Lyrics for Walter Trout's Prisoner Of A Dream album. Includes Album Cover, Release Year, and User Reviews. Lyrics. Popular Song Lyrics. Billboard Hot 100. Upcoming Lyrics. Recently Added. Top Lyrics of 2011. Top Lyrics of 2010. Top Lyrics of 2009.

  4. 29 de jun. de 2022 · TITLE "Prisoner Of A Dream" FILE "Walter Trout - Prisoner Of A Dream - LP1.flac" WAVE TRACK 01 AUDIO TITLE "A1 Prisoner Of A Dream" INDEX 01 00:00:00 TRACK 02 AUDIO TITLE "A2 The Love That We Once Knew" INDEX 01 05:45:29 TRACK 03 AUDIO TITLE "A3 Sweet As A Flower" INDEX 01 10:51:26

  5. 5 de nov. de 2003 · Productbeschrijving. Prisoner Of A Dream is een album van Walter -Band- Trout, uitgebracht in 1991. Prisoner Of A Dream bevat o.a. de nummers: “Prisoner Of A Dream”, “Sweet As A Flower”, “You're The One”, “Earrings On The Table” en vele anderen. Het album betreft een rhythm & blues CD.

  6. Walter Trout Band - Prisoner Of A Dream. Walter Trout Band (Artiest) Indeling: Audio-cd. 4,7 55 beoordelingen. €999. Prijzen zijn inclusief btw. Alle indelingen en edities bekijken.

  7. Listen to Prisoner Of A Dream on Spotify. Walter Trout · Album · 1991 · 11 songs. Walter Trout · Album · 1991 · 11 songs. Listen to ... Walter Trout · Album · 1991 · 11 songs. Home; Search; Your Library. Create your first playlist It's easy, we'll help you. Create playlist. Let's find some podcasts to follow We'll keep you updated on ...