Yahoo Search Búsqueda en la Web

Resultado de búsqueda

  1. Nick Mulvey sends the Live Lounge Cucurucu! Nick Mulvey in the Live Lounge! Homepage. Accessibility links. ... BBC Radio 1. Fearne Cotton. Home; Episodes; Clips; Galleries; Live Lounge; Profile;

  2. Toggle navigation. Just Added . Previous Page; All Genres; Alternative; Anime; Blues; Brazilian

  3. 15 de may. de 2014 · The singer explained playing the main stage has always been an aspiration ahead of playing in Radio 1's Live Lounge. ... Nick Mulvey in the BBC Radio 1 green room before his Live Lounge session.

  4. 9 de jun. de 2023 · Analyzed: Nick Mulvey / Live From BBC Radio 1-----DR Peak RMS Duration Track----- DR8 -0.20 dB -9.93 dB 5:31 01-Unconditional DR8 -0.20 dB -10.60 dB 5:15 02-Mountain To Move DR8 -0.20 dB -10.86 dB 3:46 03-Bad Liar ...

  5. www.youtube.com › user › NickMulveyNick Mulvey - YouTube

    Nick Mulvey's work pushes boundaries in songwriting and sound, music both traditional and experimental, acoustic and electronic. A founding member of the awa...

  6. Nick Mulvey performs live in session at Maida Vale for Zane Lowe. Tracklisting: Cucurucu Fever To The Form I Feel Love

  7. Fearne Cotton — Nick Mulvey in the Live Lounge. Mercury Music Prize nominee Nick Mulvey is Fearne's latest Live Lounge guest. BBC Radio 1